#TITLE:Plain Asia;
#SUBTITLE:Imperishable Night;
#ARTIST:ZUN;
#TITLETRANSLIT:;
#SUBTITLETRANSLIT:;
#ARTISTTRANSLIT:;
#CREDIT:;
#BANNER:plainasia-bn.png;
#BACKGROUND:plainasia.png;
#LYRICSPATH:;
#CDTITLE:!gloveTitle.png;
#MUSIC:th08_07.mp3;
#OFFSET:0.730;
#SAMPLESTART:100.000;
#SAMPLELENGTH:12.000;
#SELECTABLE:YES;
#BPMS:0.000=155.000;
#STOPS:;
#BGCHANGES:;
// cache tags:
#FIRSTBEAT:4.000;
#LASTBEAT:396.000;
#SONGFILENAME:Songs/nhac/Plain Asia/imperishable.sm;
#HASMUSIC:1;
#HASBANNER:1;
#MUSICLENGTH:212.082;
// end cache tags

//---------------dance-single - Copied from Copied f----------------
#NOTES:
     dance-single:
     Copied from Copied f:
     Hard:
     12:
     1.000,1.000,1.000,0.820,1.000,1161.000,311.000,174.000,0.000,147.000:
0000
0000
0000
0000
,
1000
0100
0010
0001
1020
0000
0001
0000
,
2130
0000
3200
0000
,
0000
0000
0000
0000
0000
0000
0000
0000
0000
0000
0000
0000
0000
0000
0000
0300
0200
0000
0000
0000
0000
0000
0000
0000
0000
0000
0000
0000
0000
0000
0000
0000
,
0320
0000
0032
0000
,
1000
0000
0100
0000
0010
0000
0100
0003
0201
0000
0000
0000
0010
0000
0000
0000
,
1320
0000
0000
0000
0000
0000
0000
0100
0132
0000
0010
0100
1000
0100
1000
0010
,
0000
0000
0010
1000
0100
1000
0010
0100
2003
0000
0000
0000
0000
0000
0000
0000
,
3020
0000
0000
0000
0000
0000
0000
0000
0230
0000
0000
0000
0000
0000
0000
0300
,
2100
3210
0321
1230
0321
1000
0132
0010
,
1203
0010
0000
0310
2100
3121
2130
3211
,
0321
1132
1203
1321
1230
0010
0321
1000
,
0132
1123
2130
3211
1302
1123
1230
1312
,
0123
1231
2301
0100
3210
0000
0321
0000
,
1230
0000
0000
0300
2100
3210
2301
3210
,
0321
2130
3201
0321
0132
0000
1203
0000
,
0312
0123
2130
3210
1302
0123
2130
3210
,
1302
0000
0000
0000
0000
0000
0000
0000
0000
0000
0000
0000
0000
0000
0000
0000
0003
0000
0000
0000
0000
0000
0000
0000
0001
0010
0100
1000
0001
0010
0100
1000
,
0010
0100
0001
0010
0100
0001
1100
0010
0001
0010
0100
1000
0010
1000
0011
0100
,
0010
0001
1000
0010
0100
0010
1001
0100
0001
0010
0100
1000
0010
1000
0101
0010
,
0001
0100
1000
0001
0100
0010
1001
0100
0001
0010
0100
1000
0010
1000
0011
0100
,
0010
0001
0100
0010
1000
0100
0011
1000
0001
0010
0100
1000
0010
1000
0011
0100
,
1000
0010
0101
1000
0001
0010
1001
0100
0001
0010
0101
1000
0010
1000
0011
0100
,
0010
0001
1100
0010
0100
0001
0110
1000
0001
0010
0101
1000
0010
1000
0011
0100
,
1000
0010
1100
0001
0100
0010
1001
0100
0001
0010
0101
1000
0010
1000
0011
0100
,
0010
0001
1100
0010
1000
0100
0011
0100
1000
0100
1010
0001
1000
0010
0100
0010
,
0001
0000
0100
0000
1001
0000
0010
0100
1000
0000
0010
0000
1100
0010
0001
0000
0100
0000
1000
0000
0011
0000
0100
0000
0001
0000
0100
0000
1010
0100
0001
0010
,
0100
0000
0001
0100
1010
0000
0100
0000
0001
0000
0100
0000
0011
0000
1000
0000
0001
0000
0010
0000
0101
0000
1000
0000
0010
0000
0001
0000
0110
0000
1000
0000
,
0100
0000
0010
0000
0101
0000
0010
0100
1000
0000
0010
0000
1100
0010
0001
0000
0100
0000
0001
0000
0110
0000
1000
0000
0010
0000
0100
0000
1001
0000
0010
0100
,
1000
0000
0100
0010
1001
0000
0100
0000
0010
0000
0001
0000
1010
0000
0001
0000
1000
0000
0100
0010
1001
0000
0100
0000
0001
0000
0010
0000
0101
0000
1000
0000
,
0100
0000
0001
0000
0110
0000
1000
0100
0010
0000
0001
0000
1100
0010
0001
0000
0010
0000
0100
0000
0011
0000
0100
0000
0010
0000
1000
0000
0110
0000
0001
0010
,
0100
0000
1000
0100
0011
0000
0100
0000
0001
0000
1000
0000
0110
0000
0001
0000
0100
0000
0010
0000
0101
0000
1000
0000
0010
0000
0100
0000
0011
0000
1000
0000
,
0100
0000
0001
0000
1100
0000
0010
0100
1000
0000
0001
0000
1100
0010
0001
0000
0010
0000
0100
0000
1001
0000
0010
0000
0100
0000
0001
0000
1100
0000
0010
0100
,
1000
0000
0100
0010
1001
0000
0100
0000
0001
0000
0010
0000
0101
0000
0010
0000
1000
0000
0100
0000
1010
0000
0001
0000
0100
0000
0010
0000
0100
0000
1000
0000
,
0010
0000
0001
0000
0100
0000
0010
0100
1000
0000
0010
0000
0100
0010
0001
0000
0100
0000
0010
0000
1000
0000
0010
0000
0100
0000
0001
0000
1000
0000
0001
0010
,
0100
0000
0010
0100
1000
0000
0010
0000
0100
0000
1000
0000
0010
0000
0100
0000
1000
0000
0100
0000
0001
0000
0010
0000
0100
0000
1000
0000
0010
0000
1000
0000
,
0100
0000
0010
0100
1000
0000
0001
0010
1000
0000
0010
0000
0100
0010
0001
0000
0100
0000
0010
0000
1000
0000
0001
0000
0100
0000
0010
0000
1000
0000
0010
0100
,
1000
0000
0100
0010
0001
0000
0100
0000
0010
0000
0001
0000
0100
0000
1000
0000
0001
0000
0100
0000
0010
0000
0001
0000
1000
0000
0010
0000
0100
0000
1000
0000
,
0100
0000
0001
0000
0010
0000
1000
0100
0001
0000
0010
0000
0100
0010
0001
0000
0010
0000
0100
0000
0001
0000
1000
0000
0010
0000
1000
0000
0001
0000
0010
0100
,
1000
0000
0100
0010
0001
0000
0100
0000
1000
0000
0001
0000
0100
0000
0001
0000
0010
0000
0100
0000
0001
0000
0010
0000
0100
0000
1000
0000
0001
0000
0010
0000
,
1000
0000
0100
0000
0010
0000
1000
0100
0001
0000
0010
0000
1000
0100
0010
0000
0001
0000
0010
0000
0100
0000
1000
0000
0100
0000
0010
0000
0001
0000
0010
0100
,
1000
0000
0100
0010
0001
0000
0100
0000
0010
0000
0001
0000
0010
0000
0100
0000
1010
0000
0001
0000
1010
0000
0100
0000
1001
0000
0010
0000
0101
0000
1000
0000
,
0011
0000
0000
0000
0001
0000
0000
0000
0100
0000
0000
0000
0000
0000
0000
0100
,
0100
0010
1000
0100
0010
0100
0010
0001
,
0100
0000
0010
0000
0001
0100
1000
0010
,
0001
0100
1000
0010
0100
0010
1000
0000
,
0100
0000
0000
0000
0010
0000
0000
0000
1000
0000
0000
0000
0000
0000
0000
0100
,
0100
0010
1000
0100
0010
0100
0010
0001
,
0100
0000
0010
0000
0001
0100
1000
0010
,
0001
0010
0100
0010
2100
0001
3210
0001
,
1320
0000
0000
0000
0132
0000
0000
0000
1203
0000
0000
0000
0000
0000
0300
0100
,
2100
0000
0000
0000
3210
0000
0000
0000
0321
0000
0000
0000
0231
0000
0000
0000
1320
0000
0000
0000
1032
0100
0010
0000
1203
0000
0000
0000
0321
0000
0000
0000
,
1230
0000
0000
0000
0321
0000
0000
0000
0132
0000
1203
0000
0321
0000
1230
0001
,
1320
0000
0231
1000
0312
0000
1203
0000
0321
0000
1230
0010
2301
0100
0000
3000
,
0210
0000
0000
0000
0312
0000
0000
0000
2103
0000
0000
0000
0000
0000
3000
0100
,
2100
0000
0000
0000
3201
0000
0000
0000
2310
0000
0000
0000
3210
0000
0000
0000
0321
0000
0000
0000
1032
0100
0010
0000
2103
0000
0000
0000
3210
0000
0000
0000
,
0321
0000
0000
0000
1230
0000
0000
1000
0312
0000
1023
0001
2130
0000
3210
0001
,
1320
0000
0000
0000
1230
0000
0001
0000
1320
0000
0000
0000
2130
0000
0010
0000
0001
0000
0000
0000
0000
0000
3000
0000
0001
0010
0100
1000
0001
0000
0000
0000
,
1020
0001
2130
0000
,
3200
0000
0000
0000
0000
0000
0000
0000
0000
0000
0000
0000
0000
0000
0000
0000
0000
0000
0000
0000
0000
0000
0000
0000
0000
0000
0000
0000
0000
0000
0000
0300
,
0200
0000
0320
0000
,
0032
0000
0000
0000
0000
0000
0000
0000
1000
0000
0100
0000
0010
0000
0100
0003
,
0201
0000
0000
0000
0010
0000
0000
0000
1320
0000
0000
0000
0000
0000
0000
0100
,
0132
0000
1000
0010
0000
0000
0100
0010
0000
0000
1000
1000
0010
0000
0100
0000
,
2013
0000
0000
0001
0000
0000
0000
0000
3021
0000
0001
0100
0000
1000
0000
0001
,
0230
0000
0010
1000
0000
0000
0001
0310
2100
0000
3210
0000
0321
0000
1230
0000
,
0321
0000
1000
0000
0132
0000
0010
0000
1203
0000
0010
0000
0000
0000
0310
0100
,
2100
3121
2130
3211
0321
1132
1203
1321
,
1230
0010
0321
1000
0132
1123
2130
3211
,
1302
1123
1230
1312
0123
1231
2301
0100
,
3210
0000
0000
0000
0321
0000
0000
0000
1230
0000
0000
0000
0000
0000
0300
0100
,
2100
3210
2301
3210
0321
2130
3201
0321
,
0132
0000
1203
0000
0312
0123
2130
3210
,
1302
0123
2130
3210
1302
0000
0000
0000
,
0003
0000
0000
0000
0000
0000
0000
0000
0001
0010
0100
1000
0001
0010
0100
1000
0011
0000
1000
0000
0001
0000
0010
0000
0100
0000
0001
0000
1100
0000
0010
0000
,
0001
0010
0100
1000
0010
1000
0011
0100
1010
0001
1000
0010
0100
0010
1001
0100
,
0001
0010
0100
1000
0010
1000
0101
0010
1001
0100
1000
0001
0100
0010
1001
0100
,
0001
0010
0100
1000
0010
1000
0011
0100
1010
0001
0100
0010
1000
0100
0011
1000
,
0001
0010
0100
1000
0010
1000
0011
0100
1001
0010
0101
1000
0001
0010
1001
0100
,
0001
0010
0101
1000
0010
1000
0011
0100
1010
0001
1100
0010
0100
0001
0110
1000
,
0001
0010
0101
1000
0010
1000
0011
0100
1001
0010
1100
0001
0100
0010
1001
0100
,
0001
0010
0101
1000
0010
1000
0011
0100
1010
0001
1100
0010
1000
0100
0011
0100
,
1000
0000
0100
0000
1010
0000
0001
0000
1000
0000
0010
0000
0100
0000
0010
0000
0101
0000
0010
0000
1100
0000
0010
0100
1000
0000
0010
0000
1100
0010
0001
0000
,
0110
0000
1000
0000
0011
0000
0100
0000
0001
0000
0100
0000
1010
0100
0001
0010
1100
0000
0001
0100
1010
0000
0100
0000
0001
0000
0100
0000
0011
0000
1000
0000
,
0001
0000
0010
0000
0101
0000
1000
0000
0010
0000
0001
0000
0110
0000
1000
0000
0101
0000
0010
0000
1100
0000
0010
0100
1000
0000
0010
0000
1100
0010
0001
0000
,
1010
0000
0001
0000
1010
0000
0100
0000
0001
0000
0010
0000
1100
0000
0010
0100
1001
0000
0100
0010
1001
0000
0100
0000
0010
0000
0001
0000
1010
0000
0001
0000
,
1000
0000
0100
0010
1001
0000
0100
0000
0001
0000
0010
0000
0101
0000
1000
0000
0110
0000
0001
0000
0110
0000
1000
0100
0010
0000
0001
0000
1100
0010
0001
0000
,
0110
0000
1000
0000
0011
0000
0100
0000
0001
0000
0010
0000
1100
0000
0010
0100
1001
0000
0100
0010
1001
0000
0100
0000
0001
0000
0010
0000
1001
0000
0100
0000
,
1000
0000
0010
0000
0101
0000
1000
0000
0010
0000
0100
0000
0011
0000
1000
0000
0110
0000
0001
0000
1100
0000
0010
0100
1000
0000
0001
0000
1100
0010
0001
0000
,
1010
0000
0100
0000
1001
0000
0010
0000
0100
0000
1000
0000
0101
0000
0010
0100
1001
0000
0100
0010
1001
0000
0100
0000
0001
0000
0010
0000
0101
0000
0010
0000
,
1000
0000
0100
0000
1010
0000
0001
0000
0100
0000
0010
0000
0100
0000
1000
0000
0110
0000
0001
0000
0100
0000
0010
0100
1000
0000
0010
0000
0100
0010
0001
0000
,
0100
0000
0010
0000
1000
0000
0010
0000
0100
0000
0001
0000
1000
0000
0001
0010
1100
0000
0010
0100
1000
0000
0001
0000
0100
0000
1000
0000
0010
0000
0100
0000
,
1000
0000
0100
0000
0001
0000
0010
0000
0100
0000
1000
0000
0010
0000
0100
0000
0011
0000
0100
0000
1000
0000
0010
0100
1000
0000
0010
0000
0100
0010
0001
0000
,
0100
0000
0010
0000
1000
0000
0001
0000
1000
0000
0001
0010
0100
0000
0010
0100
1001
0000
0100
0010
0001
0000
0100
0000
0010
0000
0001
0000
0100
0000
1000
0000
,
0010
0000
0100
0000
1000
0000
0001
0000
1000
0000
0001
0000
0010
0000
0100
0000
1012
0003
0100
0000
0010
0000
1000
0100
0001
0000
0010
0000
1000
0100
0010
0000
,
2001
3000
0000
0000
0100
0000
0000
0000
0001
0000
0000
0000
1000
0000
0000
0000
0010
0000
0000
0000
1000
0000
0000
0000
0100
0000
0000
0000
0010
0000
0100
0000
1012
0003
0000
0000
0100
0000
0010
0000
0001
0000
0000
0000
0010
0000
0000
0000
0100
0000
0000
0000
0001
0000
0000
0000
1000
0000
0000
0000
0010
0000
0000
0000
,
0100
0000
1000
0000
0101
0000
0010
0000
0100
0000
1000
0000
0011
0000
0100
0000
1001
0000
0100
0000
0011
0000
1000
0100
0001
0000
0010
0000
1001
0100
0010
0000
,
0001
0000
0010
0000
0101
0000
1000
0000
0100
0000
0010
0000
0001
0000
0010
0100
1001
0000
0100
0010
0001
0000
0100
0000
0010
0000
0001
0000
0010
0000
0100
0000
,
1010
0001
1010
0100
1001
0010
0101
1000
0011
0000
0000
0000
0001
0000
0000
0000
,
0100
0000
0000
0000
;
